#TITLE:Science Soldier Boss;
#SUBTITLE:;
#ARTIST:Naoki, DJ Taka, BeForU, Tatsh Feat. Science Soldier;
#TITLETRANSLIT:;
#SUBTITLETRANSLIT:;
#ARTISTTRANSLIT:;
#CREDIT:;
#BANNER:Science Soldier Boss Banner.PNG;
#BACKGROUND:1.bmp;
#LYRICSPATH:Science Soldier Boss.lrc.lrc;
#CDTITLE:;
#MUSIC:Science Soldier Boss.ogg;
#OFFSET:-0.870;
#SAMPLESTART:14.211;
#SAMPLELENGTH:20.000;
#SELECTABLE:YES;
#BPMS:0.000=148.000,97.000=150.000,237.500=159.960,361.500=150.000,435.500=140.000,532.000=1000.009;
#STOPS:96.500=0.440
;
#BGCHANGES:0.000=2.png=1.000=1=0=1,
4.000=Geometry1.avi=1.000=1=0=1,
34.000=Rising Stars.avi=1.000=0=0=1,
50.000=text5.avi=1.000=0=0=1,
66.000=Fireworks.avi=1.000=0=0=1,
82.500=Rotating Hearts.avi=1.000=0=0=1,
96.500=Rotating Hearts.avi=0.000=0=0=1,
97.000=3.png=1.000=0=0=1,
97.500=2.png=1.000=0=0=1,
98.000=3.png=1.000=0=0=1,
98.500=2.png=1.000=0=0=1,
99.000=3.png=1.000=0=0=1,
99.500=2.png=1.000=0=0=1,
100.000=3.png=1.000=0=0=1,
100.500=2.png=1.000=0=0=1,
101.000=3.png=1.000=1=0=1,
105.000=Fireworks.avi=1.000=1=0=1,
132.000=Rising Stars.avi=1.000=0=0=1,
164.000=Light8.avi=1.000=0=0=1,
196.000=Geometry1.avi=1.000=0=0=1,
212.000=Rotating Hearts.avi=1.000=0=0=1,
231.500=4.png=1.000=0=0=1,
232.000=3.png=1.000=0=0=1,
232.500=4.png=1.000=0=0=1,
233.000=3.png=1.000=0=0=1,
233.500=4.png=1.000=0=0=1,
234.500=3.png=1.000=0=0=1,
235.000=4.png=1.000=0=0=1,
235.500=3.png=1.000=0=0=1,
236.000=4.png=1.000=0=0=1,
236.500=3.png=1.000=0=0=1,
237.000=4.png=1.000=0=0=1,
237.500=4.png=1.000=0=0=1,
238.000=3.png=1.000=0=0=1,
238.500=4.png=1.000=1=0=1,
245.000=Up~Right Spikes.avi=1.000=1=0=1,
260.000=Symbols2.avi=1.000=0=0=1,
292.000=Light8.avi=1.000=0=0=1,
320.000=Rotating Hearts.avi=1.000=0=0=1,
361.500=5.png=1.000=1=0=1,
368.000=text5.avi=1.000=1=0=1,
394.500=Rotating Hearts.avi=1.000=0=0=1,
410.500=Blue.avi=1.000=0=0=1,
435.500=6.bmp=1.000=1=0=1,
440.000=Rising Stars.avi=0.800=1=0=1,
458.500=Light8.avi=0.800=0=0=1,
481.667=Geometry1.avi=0.800=0=0=1,
506.000=Rotating Hearts.avi=0.800=0=0=1,
527.000=2.png=1.000=0=0=1,
528.000=3.png=1.000=0=0=1,
529.000=4.png=1.000=0=0=1,
530.000=5.png=1.000=0=0=1,
531.000=6.bmp=1.000=0=0=1,
532.000=1.bmp=1.000=1=0=1,
99999=-nosongbg-=1.000=0=0=0 // don't automatically add -songbackground-
;
// cache tags:
#FIRSTBEAT:4.000;
#LASTBEAT:536.000;
#SONGFILENAME:Songs/Music V.I.P ^_^/Science Soldier Boss/Science Soldier Boss.sm;
#HASMUSIC:1;
#HASBANNER:1;
#MUSICLENGTH:217.141;
// end cache tags

//---------------dance-single - ----------------
#NOTES:
     dance-single:
     :
     Hard:
     10:
     0.632,0.586,0.101,0.051,0.023,925.000,22.000,11.000,0.000,2.000:
0000
0000
0000
0000
,
1000
0100
0010
0001
0010
0100
1000
0100
,
0010
0001
0010
0100
1000
0100
0010
0001
,
0010
0100
1000
0001
1000
0001
1000
0010
,
0100
0010
0100
0010
0100
0001
1000
0001
,
1000
0001
1000
0010
0100
0010
0100
0010
,
0100
2002
0000
0000
,
0000
0000
0000
0000
0000
3003
0000
0000
,
1000
0100
0010
0001
1000
0001
0010
0100
,
1000
0001
0010
1000
0100
0001
0000
0000
,
0000
0010
1000
0010
1000
0010
1000
0000
,
0000
0000
0100
0001
0100
0001
0100
0001
,
0000
0000
0000
0000
1000
0010
0100
0001
,
1000
0010
0100
0001
1000
0010
0100
0001
,
1000
0010
0100
0001
1000
0010
0100
0001
,
1000
0010
0100
0001
1000
0010
0100
0001
,
1000
0010
0100
0001
1011
0000
1000
0100
,
1000
0100
1000
0100
0010
0001
0010
0001
,
0010
0001
1000
0100
1000
0100
1000
0100
,
0010
0001
0010
0001
0010
0001
1001
0100
,
0010
0101
0010
1000
0010
0101
1000
0010
,
0100
0001
1000
0100
0010
0001
1000
0010
,
0100
0001
1000
0010
0100
1000
0010
0100
,
0001
1000
0001
0100
0010
1000
0001
0000
,
0100
0010
1000
0100
0010
0001
1000
0100
,
0010
0001
0010
0100
1000
0010
0000
0100
,
0001
0100
1000
0100
0010
0010
0100
1000
,
0010
0100
0001
1000
0010
0100
0010
0100
,
0010
0100
0010
0100
0000
0000
1011
0000
,
0000
0000
1000
0100
0010
1000
0100
0010
,
1000
0100
0010
0001
0010
0100
1000
0100
,
0010
0001
1000
0100
0010
1001
0100
0010
,
0001
0001
0001
0100
0100
0100
1000
0100
,
0010
0001
0010
0100
1000
0100
0010
0001
,
0100
0010
1000
0100
0001
0010
0100
1000
,
0001
0000
0001
0010
0100
0010
1000
0100
,
0010
1000
0001
0100
0010
1000
0100
0000
,
1000
0001
0010
0100
0001
1000
0010
0100
,
0001
1000
0010
0100
1000
0001
0010
0100
,
0001
1000
0001
0100
0010
1000
0010
0100
,
1000
0001
0100
0010
1000
0010
0100
0001
,
1000
0010
0100
0001
1000
0010
0100
0001
,
1000
0010
0100
0001
1000
0000
0010
0100
,
1000
0010
0100
0001
0100
0010
0100
0001
,
0100
0010
0100
1000
0100
0010
0100
0001
,
0100
1000
0100
0001
0100
0010
0100
1000
,
0100
0010
0100
1001
0100
0010
0100
1000
,
0010
0100
0001
1000
0010
0100
0001
1000
,
0010
0100
0001
1000
0100
0001
0010
0100
,
1000
0010
0100
2000
0000
0000
3000
0000
,
0000
0000
0000
0001
0010
0100
1000
0010
,
0100
1000
0100
0020
0000
0000
0030
0000
,
0000
0000
1000
0100
0010
0100
0001
0100
,
0010
1000
0100
0010
0001
0010
0100
1000
,
0100
1000
0010
0100
0010
1000
0001
0100
,
0010
1000
0010
0100
0001
0000
1000
0100
,
0010
0001
0010
0100
1000
0001
1000
0000
,
2002
0000
0000
0000
3003
1001
0000
1000
,
0100
0001
0010
1000
0000
0010
0001
0010
,
0100
0010
1000
0010
0000
1000
0010
0000
,
0100
0001
1000
0100
0010
1000
0100
0000
,
0000
0000
0010
1000
0000
1000
0010
1000
,
0010
0000
0010
0100
0010
0100
0001
0100
,
1000
0010
0100
0001
0010
0100
1001
0100
,
1001
0100
0010
0001
1000
0100
0001
0010
,
1000
0010
0100
0001
1000
0001
1000
0100
,
0001
0010
1000
0100
0001
0010
1001
0100
,
0010
0001
0010
0100
1000
0001
0100
0010
,
1000
0100
0001
0010
0100
1000
0100
0010
,
0001
0010
0100
0010
1000
0100
0010
1000
,
0100
0010
0001
0100
0010
1000
0100
0010
,
0001
0100
1000
0010
0100
0001
0010
0100
,
1000
0010
0100
1000
0010
0100
0001
1000
,
0010
0100
0001
1000
0100
0010
0001
0100
,
1000
0010
0100
0001
0010
1000
0100
0010
,
1000
0100
0010
0001
0010
0100
1000
0100
,
0010
1000
0010
0100
0001
0100
0010
1000
,
0010
0100
0001
0010
1000
0100
0010
1000
,
0100
0010
0001
0010
0100
0001
0010
0100
,
0001
0010
0100
1000
0100
0010
1000
0100
,
0010
0001
0010
0100
1000
0001
0010
0001
,
0100
0001
0010
0100
0010
1000
0100
0010
,
1000
0010
0100
0001
1000
0010
0100
0001
,
1000
0010
0100
0001
1000
0010
0100
0001
,
0010
0100
1000
0100
0010
0001
0010
0100
,
0010
1000
0100
0010
0100
0010
0100
0010
,
0001
1000
0001
1000
0001
1000
0001
1000
,
0100
0010
0100
0010
0100
0010
0100
1000
,
0010
0001
0100
1000
0010
0001
0100
1000
,
0010
0001
0100
1000
0010
0001
0100
1000
,
0010
0001
0100
1000
0100
0000
0100
0000
,
0100
0010
1000
0100
,
0001
0010
1000
0100
,
0100
0010
1000
0100
,
0010
0001
1000
0100
,
0010
0001
0010
0100
,
0010
1000
0100
0010
,
0001
1000
0100
0010
,
0001
0000
0000
1000
0100
0010
0001
0010
,
0100
1000
0100
0010
1000
0010
0100
0001
,
0100
0010
1000
0001
0100
1000
0010
0100
,
0001
1000
0010
0100
0010
1000
0010
0100
,
0001
0100
0010
1000
0100
1000
0010
0100
,
1000
0010
0100
1000
0010
0100
1000
0010
,
0100
1000
0010
0100
1000
0000
0100
0010
,
0001
1000
0100
0010
1000
0010
0100
0001
,
0100
0010
1000
0100
0010
1000
0100
0010
,
0100
1000
0100
0010
1000
0100
0001
0010
,
1000
0100
0000
1000
0100
0010
0001
0100
,
0001
1000
0001
0010
1000
0100
0001
0010
,
1000
0100
0001
0010
1000
0100
0010
1000
,
0010
0100
0001
0100
0010
1000
0100
0001
,
1000
0010
0100
1000
0001
0100
0010
1000
,
0100
0010
1000
0001
0100
0010
1000
0010
,
0100
0001
1000
0100
0010
0001
0100
1000
,
0010
0100
0001
1000
0100
0010
1000
0100
,
0010
0001
0100
1000
0010
0100
0010
0100
,
0001
0010
1000
0100
0010
1000
0100
0010
,
0100
0001
0010
1000
0100
0000
0000
0000
,
0100
0000
0000
0010
0100
0001
1000
0100
0010
1000
0100
0010
,
0001
0010
1000
0100
0001
0010
0000
0000
0000
1000
0000
0000
,
0010
0000
0100
0000
0001
0000
0010
1000
,
0100
0010
0001
0010
0100
1000
0100
0010
,
0100
0010
0001
1000
0100
0010
1000
0010
,
0100
0001
0010
1000
0100
0010
0100
0001
,
1000
0010
0100
0001
1000
0010
0100
1000
,
0000
0000
2001
0000
,
0000
3010
1001
0110
,
0220
0000
0000
0000
0000
0000
0330
1000
,
0100
0010
1001
0100
0010
1001
0010
0100
,
1001
0100
0010
1001
0000
0100
0010
1000
,
0010
0100
0001
0010
0100
0000
2002
0000
,
0000
0000
0000
0000
,
0000
0000
0000
0000
,
3003
0000
0000
0000
;

//---------------dance-single - Joke!----------------
#NOTES:
     dance-single:
     Joke!:
     Challenge:
     11:
     0.744,1.000,0.267,0.064,0.207,1052.000,58.000,14.000,0.000,18.000:
0000
0000
0000
0000
,
1000
0100
0010
0001
0010
0100
1000
0100
,
0010
0001
0010
0100
1000
0100
0010
0001
,
0010
0000
0100
0000
1000
0100
0001
0010
1000
0100
0001
0010
1000
0100
0010
0001
,
0100
1000
0010
0001
0100
1000
0010
0001
0100
1000
0001
0010
1000
0100
0001
0010
,
1000
0100
0001
0010
1000
0100
0010
0001
0100
1000
0010
0001
0100
1000
0010
0001
,
0100
1000
0000
0000
2012
0000
0000
0000
0100
0000
0000
0000
0010
0000
0000
0000
,
0100
0000
0010
0000
0100
3003
0000
0000
,
1000
0100
0010
0001
1000
0001
0010
0100
,
1000
0001
0010
1000
0100
0001
0000
0000
,
0000
0001
0010
0100
1000
0001
0010
0100
1000
0001
0010
0100
1000
0000
0000
0000
,
0000
0000
0000
1000
0100
0010
0001
1000
0100
0010
0001
1000
0100
0010
0001
0000
,
0000
0000
0000
0000
1000
0010
0100
0001
,
1000
0010
0100
0001
1000
0010
0100
0001
,
1000
0010
0100
0001
1000
0010
0100
0001
,
1000
0010
0100
0001
1000
0010
0100
0001
,
1000
0000
0010
0000
0100
0000
0001
0000
1011
0000
0000
0000
1000
0000
0100
0010
,
1000
0001
0100
0010
1000
0001
0100
0000
0010
0100
0001
1000
0010
0100
0001
1000
,
0010
0100
0001
0000
1000
0000
0100
0010
1000
0001
0100
0010
1000
0001
0100
0000
,
0010
0100
0001
1000
0010
0100
0001
1000
0010
0100
0001
0000
1011
0000
0100
0000
,
1010
0101
0010
1000
0010
0101
1000
0010
,
0100
0001
1000
0100
0010
0001
1000
0010
,
0100
0001
1000
0010
0100
1000
0010
0100
,
0001
1000
0001
0100
0010
1000
0001
0000
,
0100
0010
1000
0100
0010
0001
1000
0100
,
0010
0001
0010
0100
1000
0010
0000
0100
,
0001
0100
1000
0100
0010
0010
0100
1000
,
0010
0100
0001
1000
0010
0100
0011
1100
,
0011
1100
0011
1100
0000
0000
1011
0000
,
0000
0000
1000
0100
0010
1000
0100
0010
,
1000
0100
0010
0001
0010
0100
1000
0100
,
0010
0001
1000
0100
0010
1001
0100
0010
,
0001
1001
1001
0110
0110
0110
1000
0100
,
0010
0001
0010
0100
1000
0100
0010
0001
,
0100
0010
1000
0100
0001
0010
0100
1000
,
0001
0000
0001
0010
0100
0010
1000
0100
,
0010
1000
0001
0100
0010
1000
0100
0000
,
1000
0001
0010
0100
0001
1000
0010
0100
,
0001
1000
0010
0100
1000
0001
0010
0100
,
0001
1000
0001
0100
0010
1000
0010
0100
,
1000
0001
0100
0010
1000
0010
0100
0001
,
1000
0010
0100
0001
1000
0010
0100
0001
,
1000
0010
0100
0001
1000
0000
0010
0100
,
1000
0010
0100
0001
0100
0010
0100
0001
,
0100
0010
0100
1000
0100
0010
0100
0001
,
0100
1000
0100
0001
0100
0010
0100
1000
,
0100
0010
0100
1001
0100
0010
0100
1000
,
0010
0100
0001
1000
0010
0100
0001
1000
,
0010
0100
0001
1000
0100
0001
0010
0100
,
1000
0010
0100
2000
0000
0000
3000
0000
,
0000
0000
0000
0001
0010
0100
1000
0010
,
0100
1000
0100
0020
0000
0000
0030
0000
,
0000
0000
1000
0100
0010
0100
0001
0100
,
0010
1000
0100
0010
0001
0010
0100
1000
,
0100
1000
0010
0100
0010
1000
0001
0100
,
0010
1000
0010
0100
0001
0000
1000
0100
,
0010
0001
0010
0100
1000
0001
1000
0000
,
2002
0000
0000
0000
3003
1001
0000
1000
,
0100
0001
0010
1000
0000
0010
0001
0010
,
0100
0000
0010
0000
1000
0000
0010
0000
0000
0000
1000
0100
0010
0001
0000
1000
,
0100
0010
0001
0000
1000
0000
0100
0000
0010
0000
1000
0000
0100
0000
0000
0000
,
0000
0000
0000
0000
0010
0000
1000
0000
0000
0000
1000
0100
0010
0001
1000
0100
,
0010
0001
0000
0000
0010
0000
0100
0000
0010
0000
0100
0000
0001
0000
0100
0000
,
1000
0010
0100
0001
0010
0100
1001
0100
,
1001
0100
0010
0001
1000
0100
0001
0010
,
1100
0011
1100
0011
1100
0011
1001
0110
,
1001
0110
1001
0110
1001
0110
1001
0100
,
0010
0001
0010
0100
1000
1001
0100
0010
,
1000
0100
0001
0010
0100
1000
0100
0010
,
0001
0010
0100
0010
1000
0100
0010
1000
,
0100
0010
0001
0100
0010
1000
0100
0010
,
0001
0100
1000
0010
0100
0001
0010
0100
,
1000
0010
0100
1000
0010
0100
0001
1000
,
0010
0100
0001
1000
0100
0010
0001
0100
,
1000
0010
0100
0001
0010
1000
0100
0010
,
1000
0100
0010
0001
0010
0100
1000
0100
,
0010
1000
0010
0100
0001
0100
0010
1000
,
0010
0100
0001
0010
1000
0100
0010
1000
,
0100
0010
0001
0010
0100
0001
0010
0100
,
0001
0010
0100
1000
0100
0010
1000
0100
,
0010
0001
0010
0100
1000
0001
0010
0001
,
0100
0001
0010
0100
0010
1000
0100
0010
,
1000
0010
0100
0001
1000
0010
0100
0001
,
1000
0010
0100
0001
1000
0010
0100
0001
,
0010
0100
1000
0100
0010
0001
0010
0100
,
0010
0000
1000
0000
0100
1000
0010
0001
0100
1000
0010
0001
0100
1000
0010
0100
,
0001
0010
1000
0100
0001
0010
1000
0100
0001
0010
1000
0100
0001
0010
1000
0000
,
0100
0001
0010
1000
0100
0001
0010
1000
0100
0001
0010
1000
0100
0000
1000
0000
,
0010
0001
0100
1000
0010
0001
0100
1000
,
0010
0001
0100
1000
0010
0001
0100
1000
,
0010
0001
0100
1000
0100
0001
0100
1000
,
0100
0001
0010
0100
1000
0010
0100
1000
,
0001
0100
0010
0100
1000
0010
0100
0010
,
0100
0010
0100
0010
1000
0010
0100
1000
,
0010
0100
0001
0010
1000
0001
0100
1000
,
0010
0100
0001
0100
0010
1000
0100
0001
,
0010
0100
1000
0010
0100
1000
0010
0100
,
0001
0010
1000
0010
0100
1000
0010
0100
,
0001
0010
0100
1000
0100
0010
0001
0010
,
0100
1000
0100
0010
1000
0010
0100
0001
,
0100
0010
1000
0001
0100
1000
0010
0100
,
0001
1000
0010
0100
0010
1000
0010
0100
,
0001
0100
0010
1000
0100
1000
0011
0100
,
1000
0011
0100
1000
0011
0100
1000
0011
,
0100
1000
0011
0100
1000
0000
1100
0010
,
0001
1000
0100
0010
1000
0010
0100
0001
,
0100
0010
1000
0100
0010
1000
0100
0011
,
0100
1000
0100
0010
1000
0100
0001
0010
,
1000
0100
0000
1000
0100
0010
0001
0100
,
0001
1000
0001
0010
1000
0100
0001
0010
,
1000
0100
0001
0010
1000
0100
0010
1000
,
0010
0100
1001
0100
0010
1000
0100
0001
,
1000
0010
0100
1000
0001
0100
0010
1000
,
0100
0010
1000
0001
0100
0010
1000
0010
,
0100
0001
1000
0100
0010
0001
0100
1000
,
0010
0100
0001
1000
0100
0010
1000
0100
,
0010
0001
0100
1000
0010
0100
0010
0100
,
0001
0010
1000
0100
0010
1000
0100
0010
,
0100
0001
0010
1000
0100
0001
0010
1000
,
0100
0000
0000
1000
0000
0000
0010
0000
0100
0000
0001
0000
1000
0000
0100
0000
0010
0000
1000
0000
0100
0000
0010
0000
,
0001
0010
1000
0100
0001
0010
0000
0000
0000
1000
0000
0000
,
0010
0000
0100
0000
0001
0000
0010
1000
,
0100
0010
0001
0010
0100
1000
0100
0010
,
0100
0010
0001
1000
0100
0010
1000
0010
,
0100
0001
0010
1000
0100
0010
0100
0001
,
1000
0010
0100
0001
1000
0010
0100
1000
,
0000
0000
0000
0000
2102
0010
0100
0010
,
0100
0010
3103
0000
1001
0000
0110
0000
,
0220
0000
0000
0000
0000
0000
0330
1000
,
0100
0010
1001
0100
0010
1001
0010
0100
,
1001
0100
0010
1001
0000
0100
0010
1000
,
0010
0100
0001
0010
0100
0000
2222
0000
,
0000
0000
0000
0330
,
0110
0000
0000
0000
,
3003
0000
0000
0000
;
